<?xml version="1.0" standalone="no"?>
<!DOCTYPE svg PUBLIC "-//W3C//DTD SVG 1.1//EN" "http://www.w3.org/Graphics/SVG/1.1/DTD/svg11.dtd">
<svg xmlns="http://www.w3.org/2000/svg">
<defs >
<font id="Oswald" horiz-adv-x="459" ><font-face
    font-family="Oswald"
    units-per-em="1000"
    panose-1="0 0 0 0 0 0 0 0 0 0"
    ascent="1193"
    descent="-289"
    alphabetic="0" />
<glyph unicode=" " horiz-adv-x="229" />
<glyph unicode="!" horiz-adv-x="208" d="M84 173L50 810H158L122 173H84ZM50 0V110H158V0H50Z" />
<glyph unicode="&quot;" horiz-adv-x="266" d="M20 562V810H117L78 562H20ZM159 562V810H256L217 562H159Z" />
<glyph unicode="#" horiz-adv-x="486" d="M34 0L75 290H32V370H87L101 467H34V548H112L150 810H257L219 548H309L347 810H453L415 548H456V467H404L389 370H453V290H378L336 0H229L271 290H182L141 0H34ZM193 370H283L297 467H208L193 370Z" />
<glyph unicode="$" horiz-adv-x="491" d="M247 -77V-8Q144 -6 94 59T39 227L139 254Q142 211 152 171T187 106T254 80Q298 80 320 104T343 175Q343 230 318 263T255 331L119 451Q93 475 76 501T50 558T41 630Q41 717 90 765T223 817V884H258V817Q300 814 331 800T384
759T418 696T435 608L339 582Q336 622 327 656T296 712T231 730Q189 727 166 706T142 641Q142 604 154 581T195 531L332 411Q362 384 388 351T431 276T448 184Q448 129 427 88T369 22T281 -7V-77H247Z" />
<glyph unicode="%" horiz-adv-x="891" d="M289 0L512 811H604L382 0H289ZM193 380Q110 380 73 431T36 568V631Q36 720 72 768T193 816Q278 816 314 770T350 636V565Q350 478 314 429T193 380ZM193 461Q219 461 231 475T248 514T253 565V636Q253 677 243 706T193
735Q154 735 144 706T134 635V564Q134 537 138 514T155 476T193 461ZM698 -5Q615 -5 579 45T542 183V246Q542 334 577 382T698 431Q784 431 819 385T855 250V180Q855 92 819 44T698 -5ZM698 76Q724 76 737 90T754 129T758 179V251Q758 292 748 321T698 350Q659
350 649 321T639 250V179Q639 152 643 129T660 91T698 76Z" />
<glyph unicode="&amp;" horiz-adv-x="606" d="M233 -9Q178 -9 139 14T79 79T58 173Q58 250 92 306T176 407Q158 443 138 479T103 555T88 638Q88 692 109 732T169 794T261 817Q310 817 348 799T410 748T433 667Q433 614 409 566T349 476T281 402L403 210Q414 231
421 257T434 314T443 372H549Q549 333 538 290T508 209T471 143Q484 127 505 115T550 102V-8Q546 -8 543 -8T536 -8Q507 -7 484 5T443 36T407 70Q380 36 337 14T233 -9ZM233 80Q271 80 297 98T342 140L218 331Q194 300 180 259T165 173Q165 150 171 129T192 94T233
80ZM244 460Q265 485 283 519T314 591T326 667Q326 696 308 712T261 729Q225 729 210 701T195 638Q195 592 210 547T244 460Z" />
<glyph unicode="&apos;" horiz-adv-x="127" d="M20 562V810H117L78 562H20Z" />
<glyph unicode="(" horiz-adv-x="298" d="M268 -194Q211 -193 175 -165T117 -86T87 28T75 165T73 311Q73 385 75 457T86 594T117 709T174 788T268 817V745Q233 744 214 706T187 604T178 465T176 311Q176 233 177 157T187 17T214 -84T268 -123V-194Z" />
<glyph unicode=")" horiz-adv-x="260" d="M29 -194V-122Q65 -121 84 -83T111 19T120 159T122 313Q122 391 121 467T111 606T84 707T29 746V817Q87 817 123 789T181 710T211 596T223 459T225 313Q225 239 223 167T212 29T181 -86T124 -164T29 -194Z" />
<glyph unicode="*" horiz-adv-x="398" d="M147 469L84 507L163 618L45 663L71 731L184 671L172 809H253L240 671L354 731L379 663L261 617L341 507L276 469L212 594L147 469Z" />
<glyph unicode="+" horiz-adv-x="415" d="M165 212V375H25V456H165V619H245V456H390V375H245V212H165Z" />
<glyph unicode="," horiz-adv-x="187" d="M57 -131L40 -85Q67 -76 82 -54T98 0H41V115H151V2Q151 -51 128 -82T57 -131Z" />
<glyph unicode="-" horiz-adv-x="321" d="M49 261V342H272V261H49Z" />
<glyph unicode="." horiz-adv-x="188" d="M49 0V119H156V0H49Z" />
<glyph unicode="/" horiz-adv-x="369" d="M29 0L247 810H340L121 0H29Z" />
<glyph unicode="0" horiz-adv-x="517" d="M259 -9Q190 -9 146 22T80 107T58 230V579Q58 650 79 703T144 787T259 817Q329 817 373 787T438 704T459 579V230Q459 160 438 106T372 22T259 -9ZM259 79Q297 79 316 101T343 157T351 229V580Q351 619 344 653T318 709T259
730Q220 730 200 709T173 654T166 580V229Q166 192 173 158T201 101T259 79Z" />
<glyph unicode="1" horiz-adv-x="396" d="M171 0V670Q170 669 149 664T100 654T52 645T30 641V722Q47 726 69 733T115 750T160 775T197 810H278V0H171Z" />
<glyph unicode="2" horiz-adv-x="478" d="M41 0V76L247 397Q270 433 289 464T321 529T334 609Q334 665 316 697T253 729Q215 729 194 708T165 653T157 580V553H50V581Q50 654 69 706T132 788T248 817Q346 817 394 762T442 608Q442 556 430 517T397 444T353 374L167
90H423V0H41Z" />
<glyph unicode="3" horiz-adv-x="477" d="M238 -9Q172 -9 128 16T62 88T40 199V226H146Q146 222 146 218T146 208Q147 172 154 143T181 97T238 80Q277 80 297 98T324 151T331 229Q331 293 308 333T225 378Q222 379 218 379T210 379V486Q213 486 217 486T224 486Q281
488 306 516T331 609Q331 664 313 697T239 730Q184 730 166 694T146 600Q146 596 146 592T146 583H40V610Q40 675 62 721T128 792T239 817Q306 817 350 792T416 721T438 609Q438 536 407 492T322 432Q359 421 384 394T424 326T438 229Q438 157 418 104T354 21T238
-9Z" />
<glyph unicode="4" horiz-adv-x="483" d="M275 0V217H40V329L251 810H377V312H468V217H377V0H275ZM143 312H275V680L143 312Z" />
<glyph unicode="5" horiz-adv-x="476" d="M243 -8Q170 -8 127 20T66 101T47 227H154Q154 191 160 157T185 100T245 77Q289 77 308 102T332 171T337 270Q337 325 331 363T306 422T246 443Q213 443 190 423T156 376H65V810H414V703H162L155 479Q175 500 204 512T272
524Q338 524 375 493T428 408T444 284Q444 222 435 169T404 76T342 14T243 -8Z" />
<glyph unicode="6" horiz-adv-x="503" d="M257 -9Q187 -9 143 26T79 122T58 257V530Q58 609 76 674T137 778T257 817Q320 817 363 794T430 727T455 620Q455 618 455 615T456 608H348Q348 667 329 698T257 729Q228 729 207 711T176 654T165 556V433Q181 458 210
473T283 489Q350 489 388 460T442 379T458 255Q458 182 438 122T374 27T257 -9ZM257 80Q293 80 313 100T341 155T350 229Q350 277 346 318T322 383T257 408Q235 408 217 400T186 380T165 353V232Q165 191 173 156T202 101T257 80Z" />
<glyph unicode="7" horiz-adv-x="386" d="M93 0L239 726H22V810H346V758L196 0H93Z" />
<glyph unicode="8" horiz-adv-x="499" d="M250 -9Q177 -9 133 20T70 102T50 228Q50 269 57 300T77 354T109 395T150 427Q110 454 85 497T60 608Q60 672 80 719T142 791T250 817Q315 817 356 792T418 719T438 608Q438 540 414 497T348 427Q370 413 388 396T420
355T441 300T449 228Q449 156 430 103T367 20T250 -9ZM250 76Q289 76 310 96T338 150T346 226Q346 264 338 297T308 352T250 374Q213 374 192 353T161 299T152 226Q152 184 160 150T189 96T250 76ZM250 476Q284 477 301 497T326 548T333 614Q333 664 315 699T250
734Q203 734 184 699T165 614Q165 580 172 549T197 497T250 476Z" />
<glyph unicode="9" horiz-adv-x="502" d="M245 -9Q182 -9 138 14T70 83T46 192Q46 194 46 196T46 201H153Q153 143 172 112T246 80Q276 80 296 98T326 155T336 253V376Q321 351 292 336T218 320Q151 320 113 349T60 431T44 554Q44 628 64 687T128 782T245 817Q315
817 359 782T423 686T444 552V280Q444 202 426 136T365 31T245 -9ZM245 401Q280 401 302 418T336 457V577Q336 619 328 653T300 708T245 729Q210 729 190 708T161 654T152 580Q152 532 156 491T180 426T245 401Z" />
<glyph unicode=":" horiz-adv-x="197" d="M60 415V529H168V415H60ZM60 96V210H168V96H60Z" />
<glyph unicode=";" horiz-adv-x="215" d="M76 -46L58 1Q89 3 102 20T116 68H59V182H170V70Q170 17 149 -13T76 -46ZM59 446V565H167V446H59Z" />
<glyph unicode="&lt;" horiz-adv-x="373" d="M315 36L29 238V345L315 549V441L110 292L315 143V36Z" />
<glyph unicode="=" horiz-adv-x="415" d="M54 456V538H361V456H54ZM54 279V360H361V279H54Z" />
<glyph unicode="&gt;" horiz-adv-x="373" d="M58 36V143L264 293L58 441V549L345 346V239L58 36Z" />
<glyph unicode="?" horiz-adv-x="487" d="M162 203V327Q212 371 252 415T317 508T341 615Q341 662 317 693T245 724Q205 724 182 701T158 642Q158 629 160 618T165 592L65 573Q60 588 57 604T54 636Q54 716 104 766T245 817Q340 817 393 764T446 612Q446 545 421
491T353 391T257 300V203H162ZM157 0V110H264V0H157Z" />
<glyph unicode="@" horiz-adv-x="904" d="M470 -134Q383 -134 308 -109T177 -33T90 97T59 282Q59 417 92 516T186 681T329 778T511 810Q602 810 668 778T778 691T841 566T861 421Q861 355 844 297T795 194T719 124T621 98Q593 98 571 109T536 141T522 190Q515
159 493 131T427 100Q377 96 344 120T294 187T277 279Q277 335 294 392T343 498T418 575T514 604Q525 604 537 601T560 591T579 579L589 596H667L610 229Q608 210 607 194T611 168T633 158Q665 158 692 177T739 232T771 313T783 411Q784 474 768 531T719 632T632
701T504 726Q426 726 362 696T252 608T181 469T156 286Q156 217 171 163T214 68T283 2T372 -38T479 -51Q508 -51 537 -48T598 -39T661 -24L680 -102Q625 -118 572 -126T470 -134ZM448 182Q471 186 493 210T525 287L560 520Q553 522 546 523T532 525Q492 525 457
492T399 402T377 278Q377 249 384 226T408 190T448 182Z" />
<glyph unicode="A" horiz-adv-x="492" d="M19 0L191 810H300L473 0H366L329 204H164L125 0H19ZM179 285H314L246 650L179 285Z" />
<glyph unicode="B" horiz-adv-x="524" d="M63 0V810H249Q304 810 344 798T412 761T452 698T465 607Q465 557 453 521T415 463T349 436Q398 425 428 399T472 331T487 231Q487 179 475 136T438 63T373 17T279 0H63ZM176 81H252Q328 81 353 116T379 231Q379 282 366
316T323 368T243 386H176V81ZM176 472H243Q291 472 318 485T356 529T367 607Q367 663 350 688T297 719T203 726H176V472Z" />
<glyph unicode="C" horiz-adv-x="515" d="M266 -9Q180 -9 133 27T67 124T48 260V546Q48 628 66 689T132 783T266 817Q342 817 386 789T450 709T470 584V520H363V577Q363 622 359 656T334 710T267 729Q219 729 197 709T169 651T162 563V242Q162 181 172 146T205
95T267 80Q313 80 333 100T358 157T363 241V301H470V241Q470 167 452 111T390 23T266 -9Z" />
<glyph unicode="D" horiz-adv-x="527" d="M63 0V810H239Q329 810 381 783T456 700T479 563V265Q479 179 457 120T384 31T248 0H63ZM176 81H240Q302 81 328 105T359 175T365 286V549Q365 612 357 651T322 708T237 726H176V81Z" />
<glyph unicode="E" horiz-adv-x="407" d="M63 0V810H377V726H176V458H339V378H176V81H379V0H63Z" />
<glyph unicode="F" horiz-adv-x="391" d="M63 0V810H376V729H176V459H331V379H176V0H63Z" />
<glyph unicode="G" horiz-adv-x="535" d="M256 -10Q180 -10 135 22T69 117T48 266V537Q48 626 66 688T132 784T265 817Q341 817 387 792T455 714T476 581V551H370V576Q370 629 363 662T335 712T267 729Q217 729 195 706T167 644T161 554V254Q161 196 169 157T202
99T270 80Q314 80 338 101T371 163T380 265V321H277V401H482V0H411L400 93Q384 48 350 19T256 -10Z" />
<glyph unicode="H" horiz-adv-x="561" d="M63 0V810H176V460H384V810H497V0H384V379H176V0H63Z" />
<glyph unicode="I" horiz-adv-x="248" d="M69 0V810H180V0H69Z" />
<glyph unicode="J" horiz-adv-x="301" d="M7 -19V62Q44 62 67 67T102 85T120 122T125 185V810H237V183Q237 113 222 69T169 3T61 -19H7Z" />
<glyph unicode="K" horiz-adv-x="495" d="M63 0V810H176V428L362 810H467L307 453L493 0H383L228 380L176 286V0H63Z" />
<glyph unicode="L" horiz-adv-x="397" d="M63 0V810H176V81H383V0H63Z" />
<glyph unicode="M" horiz-adv-x="660" d="M61 0L76 810H187L330 153L474 810H584L599 0H508L499 588L362 0H298L162 588L153 0H61Z" />
<glyph unicode="N" horiz-adv-x="528" d="M63 0V810H140L370 272V810H464V0H392L159 553V0H63Z" />
<glyph unicode="O" horiz-adv-x="539" d="M270 -9Q188 -9 139 23T69 114T48 254V561Q48 641 69 698T139 786T270 817Q352 817 400 786T469 698T491 561V253Q491 174 470 115T400 24T270 -9ZM270 80Q315 80 338 98T369 150T377 229V584Q377 629 369 661T338 711T270
729Q225 729 202 712T170 662T162 584V229Q162 184 170 151T201 99T270 80Z" />
<glyph unicode="P" horiz-adv-x="480" d="M63 0V810H264Q337 810 380 784T444 707T464 586Q464 522 442 475T375 403T265 377H176V0H63ZM176 458H228Q277 458 305 469T345 507T357 585Q357 643 349 674T313 717T229 729H176V458Z" />
<glyph unicode="Q" horiz-adv-x="541" d="M435 -164Q408 -150 382 -124T332 -67T289 -8Q285 -9 280 -9T270 -9Q188 -9 139 23T69 114T48 254V561Q48 641 69 698T139 786T270 817Q352 817 400 786T470 698T492 561V253Q492 194 480 146T442 63T373 10Q385 -5 399
-21T427 -52T453 -75L435 -164ZM270 80Q316 80 339 98T370 150T378 229V584Q378 629 370 661T339 711T270 729Q225 729 202 712T170 662T162 584V229Q162 184 170 151T201 99T270 80Z" />
<glyph unicode="R" horiz-adv-x="519" d="M63 0V810H226Q307 810 360 789T438 720T464 595Q464 548 454 510T422 445T364 406L479 0H370L264 380H176V0H63ZM176 461H219Q267 461 297 473T341 514T355 595Q355 666 329 697T226 729H176V461Z" />
<glyph unicode="S" horiz-adv-x="473" d="M254 -9Q184 -9 138 21T67 104T39 227L139 254Q142 211 152 171T187 106T254 80Q298 80 320 104T343 175Q343 230 318 263T255 331L119 451Q79 486 60 527T41 630Q41 719 92 768T231 817Q279 817 315 805T376 766T415
701T435 608L339 582Q336 622 327 655T296 709T231 730Q189 730 166 708T142 641Q142 604 154 580T195 531L332 411Q378 371 413 316T448 184Q448 124 423 81T355 14T254 -9Z" />
<glyph unicode="T" horiz-adv-x="413" d="M152 0V726H15V810H398V726H265V0H152Z" />
<glyph unicode="U" horiz-adv-x="543" d="M272 -9Q184 -9 137 26T73 124T56 273V810H164V268Q164 216 171 173T201 105T272 80Q320 80 343 105T373 173T380 268V810H487V273Q487 188 470 125T407 26T272 -9Z" />
<glyph unicode="V" horiz-adv-x="505" d="M204 0L23 810H129L257 213L379 810H482L303 0H204Z" />
<glyph unicode="W" horiz-adv-x="729" d="M168 0L36 810H130L217 228L326 807H406L516 225L601 810H693L563 0H481L368 600L254 0H168Z" />
<glyph unicode="X" horiz-adv-x="482" d="M13 0L182 424L16 810H121L244 524L356 810H461L291 415L469 0H364L232 305L118 0H13Z" />
<glyph unicode="Y" horiz-adv-x="481" d="M187 0V286L12 810H117L241 419L363 810H469L295 286V0H187Z" />
<glyph unicode="Z" horiz-adv-x="417" d="M38 0V81L276 729H53V810H396V761L145 81H396V0H38Z" />
<glyph unicode="[" horiz-adv-x="340" d="M63 -184V810H283V755H170V-129H283V-184H63Z" />
<glyph unicode="\" horiz-adv-x="369" d="M247 0L29 810H121L340 0H247Z" />
<glyph unicode="]" horiz-adv-x="310" d="M26 -184V-129H139V754H26V810H247V-184H26Z" />
<glyph unicode="^" horiz-adv-x="443" d="M34 487L168 810H276L410 487H308L222 730L135 487H34Z" />
<glyph unicode="_" horiz-adv-x="344" d="M0 -134V-53H344V-134H0Z" />
<glyph unicode="`" horiz-adv-x="278" d="M167 612L57 810H164L221 612H167Z" />
<glyph unicode="a" horiz-adv-x="426" d="M158 -8Q124 -8 98 11T57 61T42 126Q42 180 60 217T109 279T182 324T270 361V402Q270 437 266 460T250 494T212 506Q190 506 177 496T157 468T151 424V395L45 399Q47 495 89 540T219 586Q305 586 341 539T377 403V139Q377
112 378 87T382 41T387 0H289Q286 16 282 40T275 85Q265 51 237 22T158 -8ZM200 84Q216 84 230 93T255 113T270 132V296Q245 282 223 268T185 239T159 204T149 159Q149 124 162 104T200 84Z" />
<glyph unicode="b" horiz-adv-x="447" d="M261 -8Q230 -8 206 7T163 42V0H56V810H163V532Q182 554 208 570T272 586Q317 586 343 563T383 504T400 432T404 369V229Q404 168 392 114T349 26T261 -8ZM239 76Q267 76 279 96T294 152T297 229V369Q297 405 293 435T276
484T235 502Q214 502 196 493T163 473V102Q177 91 196 84T239 76Z" />
<glyph unicode="c" horiz-adv-x="411" d="M212 -8Q141 -8 105 20T56 101T43 222V355Q43 428 56 479T105 558T212 586Q275 586 309 566T357 505T370 404V370H273V405Q273 443 268 465T250 497T213 507Q187 507 173 495T155 455T150 377V195Q150 121 164 96T214
71Q241 71 253 83T269 119T273 171V218H370V178Q370 120 357 78T309 14T212 -8Z" />
<glyph unicode="d" horiz-adv-x="442" d="M188 -8Q115 -8 79 45T43 227V339Q43 405 54 461T95 552T185 586Q214 586 238 573T281 541V810H388V0H281V37Q262 17 240 5T188 -8ZM215 76Q230 76 247 81T281 98V477Q267 487 250 494T213 502Q176 502 163 467T150 381V218Q150
178 154 146T173 95T215 76Z" />
<glyph unicode="e" horiz-adv-x="421" d="M214 -8Q146 -8 109 18T58 96T43 223V355Q43 432 58 483T110 560T214 586Q287 586 321 556T367 470T378 334V287H150V171Q150 136 156 114T177 82T215 71Q239 71 251 82T268 115T273 166V201H377V179Q377 92 340 42T214
-8ZM150 345H273V397Q273 433 269 457T253 494T213 507Q187 507 174 495T155 455T150 376V345Z" />
<glyph unicode="f" horiz-adv-x="287" d="M88 0V499H19V578H88V608Q88 662 96 700T132 760T213 781Q233 781 248 780T283 774V696Q274 698 263 699T243 701Q212 701 204 681T195 626V578H283V499H195V0H88Z" />
<glyph unicode="g" horiz-adv-x="435" d="M204 -179Q152 -179 110 -168T44 -133T20 -70Q20 -42 32 -21T63 15T103 41Q75 49 61 66T47 103Q47 135 64 158T111 208Q78 233 61 272T44 380Q44 448 62 493T117 562T207 586Q254 586 282 570T326 522Q331 530 353 549T404
582L420 589L447 520Q434 518 413 511T373 496T349 483Q356 466 361 434T367 377Q367 318 352 273T303 203T207 177Q194 177 179 179T152 184Q146 175 140 163T133 140Q133 129 144 123T181 114L271 106Q339 100 372 65T405 -35Q405 -82 383 -114T317 -163T204
-179ZM212 -95Q269 -95 296 -82T323 -38Q323 -20 317 -8T293 11T244 21L153 29Q142 18 132 7T116 -16T110 -43Q110 -69 132 -82T212 -95ZM207 252Q230 252 243 260T264 285T273 326T276 380Q276 410 274 434T265 476T245 503T208 512Q186 512 172 503T150 478T140
437T137 380Q137 353 139 330T149 289T171 262T207 252Z" />
<glyph unicode="h" horiz-adv-x="445" d="M57 0V810H164V518Q193 546 229 566T309 586Q343 586 361 568T387 523T395 468V0H288V437Q288 468 279 485T242 502Q223 502 203 491T164 464V0H57Z" />
<glyph unicode="i" horiz-adv-x="229" d="M61 0V578H168V0H61ZM61 664V776H168V664H61Z" />
<glyph unicode="j" horiz-adv-x="230" d="M36 -146Q23 -146 8 -145T-19 -139V-62Q-14 -63 -5 -64T9 -65Q32 -65 45 -56T63 -31T69 5V578H176V-6Q176 -74 139 -110T36 -146ZM69 664V776H177V664H69Z" />
<glyph unicode="k" horiz-adv-x="429" d="M56 1V811H163V328L319 578H431L295 352L427 0H320L212 296L163 222V1H56Z" />
<glyph unicode="l" horiz-adv-x="229" d="M64 0V810H171V0H64Z" />
<glyph unicode="m" horiz-adv-x="680" d="M54 0V578H153V523Q182 556 217 572T289 588Q321 588 346 572T383 515Q414 553 450 570T527 588Q555 588 578 575T615 532T629 454V0H531V447Q531 489 518 503T481 518Q459 518 435 506T391 471Q391 467 391 463T391 454V0H293V447Q293
489 280 503T243 518Q221 518 198 506T153 471V0H54Z" />
<glyph unicode="n" horiz-adv-x="439" d="M54 0V578H161V521Q190 548 225 567T302 586Q337 586 355 568T381 523T389 468V0H282V437Q282 468 273 485T236 502Q218 502 199 492T161 466V0H54Z" />
<glyph unicode="o" horiz-adv-x="425" d="M213 -8Q149 -8 112 18T60 92T44 205V373Q44 438 59 486T112 560T213 586Q277 586 313 560T365 486T381 373V205Q381 140 366 92T314 18T213 -8ZM213 71Q244 71 256 89T271 136T274 198V379Q274 412 272 441T257 488T213
507Q182 507 169 489T154 441T151 379V198Q151 166 153 137T169 89T213 71Z" />
<glyph unicode="p" horiz-adv-x="446" d="M54 -190V578H161V532Q180 554 207 570T271 586Q316 586 342 563T382 504T399 432T403 369V229Q403 168 391 114T348 26T259 -8Q228 -8 204 7T161 43V-190H54ZM238 76Q266 76 278 96T293 152T296 229V369Q296 405 292
435T275 484T234 502Q213 502 194 493T161 472V102Q176 91 195 84T238 76Z" />
<glyph unicode="q" horiz-adv-x="443" d="M282 -190V37Q263 17 241 5T189 -8Q116 -8 80 45T44 227V339Q44 405 55 461T96 552T186 586Q215 586 239 573T282 541V578H389V-190H282ZM216 76Q231 76 248 81T282 98V477Q268 487 251 494T214 502Q177 502 164 467T151
381V218Q151 178 155 146T174 95T216 76Z" />
<glyph unicode="r" horiz-adv-x="321" d="M57 0V578H164V496Q196 549 228 567T292 585Q296 585 299 585T309 584V466Q297 471 282 474T250 478Q225 478 205 467T164 422V0H57Z" />
<glyph unicode="s" horiz-adv-x="374" d="M188 -8Q117 -8 74 36T25 154L114 181Q122 126 141 99T197 71Q226 71 241 87T256 132Q256 157 245 177T209 218L110 303Q80 329 60 361T39 444Q39 490 57 521T109 569T188 586Q257 586 293 542T335 434L263 407Q259 437
251 459T229 494T192 507Q166 507 151 490T135 448Q135 433 141 419T164 390L266 296Q287 277 305 255T336 205T348 140Q348 91 328 58T272 9T188 -8Z" />
<glyph unicode="t" horiz-adv-x="308" d="M208 -8Q163 -8 136 9T96 57T83 130V507H22V578H83V747H190V578H283V507H190V137Q190 103 201 89T243 74Q251 74 261 75T282 77V-2Q262 -5 245 -6T208 -8Z" />
<glyph unicode="u" horiz-adv-x="440" d="M137 -8Q103 -8 84 10T58 55T50 110V578H157V142Q157 111 166 94T203 76Q221 76 240 86T278 112V578H385V0H278V57Q250 30 215 11T137 -8Z" />
<glyph unicode="v" horiz-adv-x="385" d="M129 0L15 578H123L194 113L266 578H370L260 0H129Z" />
<glyph unicode="w" horiz-adv-x="588" d="M121 0L28 578H116L176 152L253 578H335L412 154L472 578H560L464 0H374L295 408L217 0H121Z" />
<glyph unicode="x" horiz-adv-x="389" d="M9 0L139 304L12 578H114L199 395L274 578H379L247 291L381 0H279L188 196L110 0H9Z" />
<glyph unicode="y" horiz-adv-x="392" d="M45 -145V-63Q84 -63 107 -60T140 -47T150 -20Q150 -11 143 20T128 86L12 578H120L198 146L273 578H381L243 -32Q234 -74 210 -98T149 -134T58 -145H45Z" />
<glyph unicode="z" horiz-adv-x="347" d="M32 0V72L209 498H50V578H324V520L146 81H320V0H32Z" />
<glyph unicode="{" horiz-adv-x="300" d="M277 -191Q214 -191 178 -185T125 -158T103 -97T98 10V151Q98 206 94 232T77 267T40 276V350Q64 350 76 359T93 395T98 476V616Q98 683 102 723T124 783T178 810T277 817V738Q252 738 238 734T218 718T211 682T210 616V460Q210
385 192 353T144 313Q174 306 192 274T210 167V10Q210 -32 211 -56T218 -93T238 -108T277 -112V-191Z" />
<glyph unicode="|" horiz-adv-x="239" d="M69 -148L70 810H169V-148H69Z" />
<glyph unicode="}" horiz-adv-x="321" d="M44 -191V-112Q69 -112 83 -109T103 -93T110 -57T111 10V167Q111 242 129 274T178 313Q147 321 129 353T111 460V616Q111 657 110 681T103 718T83 734T44 738V817Q107 817 143 811T196 784T218 723T223 616V476Q223 422
227 395T244 359T281 350V276Q257 276 245 268T228 233T223 151V10Q223 -57 219 -97T197 -157T143 -184T44 -191Z" />
<glyph unicode="~" horiz-adv-x="447" d="M296 363Q271 363 245 377T193 406T146 420Q133 420 113 409T73 382L35 433Q49 448 70 465T114 494T154 506Q179 506 204 492T255 464T302 449Q317 449 335 461T374 489L412 440Q399 425 379 407T337 376T296 363Z" />
<glyph unicode="&#xa0;" horiz-adv-x="229" />
<glyph unicode="&#xa1;" horiz-adv-x="208" d="M50 -178L85 458H123L158 -178H50ZM50 522V632H158V522H50Z" />
<glyph unicode="&#xa2;" horiz-adv-x="388" d="M178 -79V-6Q122 1 93 31T53 110T43 222V355Q43 422 54 471T94 549T179 584V656H213V586Q276 586 310 565T357 504T370 404V370H273V405Q273 443 268 465T250 497T213 507Q187 507 173 495T155 455T150 377V195Q150
121 164 96T214 71Q241 71 253 83T269 119T273 171V218H370V178Q370 120 357 78T309 14T212 -8V-79H178Z" />
<glyph unicode="&#xa3;" horiz-adv-x="398" d="M2 0V54L61 80V354H2V434H61V526Q61 585 66 637T88 730T139 794T230 817Q282 817 313 795T358 734T372 644Q372 634 372 623T372 611H292Q292 641 288 668T271 712T230 730Q202 730 189 710T172 660T167 598V434H287V354H167V81H371V0H2Z"
/>
<glyph unicode="&#xa4;" horiz-adv-x="550" d="M53 186L38 201L118 280Q93 308 78 345T63 423Q63 464 78 501T118 566L38 645L53 660L132 581Q160 607 196 622T275 637Q317 637 353 622T418 581L497 660L512 645L433 566Q458 538 472 501T486 423Q486 382 472
345T432 280L512 201L497 186L418 265Q390 239 354 224T275 209Q233 208 197 223T132 265L53 186ZM275 252Q322 252 359 275T419 337T441 423Q441 470 419 509T360 571T275 594Q229 594 192 571T132 509T110 423Q110 376 132 337T191 275T275 252Z" />
<glyph unicode="&#xa5;" horiz-adv-x="457" d="M185 0V115H96V185H185V250H96V319H174L10 810H115L238 419L360 810H467L304 319H381V250H292V185H381V115H292V0H185Z" />
<glyph unicode="&#xa6;" horiz-adv-x="212" d="M63 400V810H149V400H63ZM63 -153V256H149V-153H63Z" />
<glyph unicode="&#xa7;" horiz-adv-x="427" d="M214 -8Q164 -8 130 13T74 69T43 145L124 172Q131 152 142 131T171 95T214 80Q243 80 261 94T282 138Q284 153 280 166T267 193T240 218L125 293Q91 315 67 344T42 425Q42 475 66 508T127 557Q97 577 71 608T45 682Q45
725 66 755T126 801T214 817Q264 817 298 796T353 741T383 667L302 640Q295 659 284 679T256 715T213 730Q185 730 169 714T152 669Q152 657 157 647T170 628T187 613L316 529Q350 507 368 472T386 392Q386 346 366 315T313 266Q340 243 361 214T383 142Q383 68
336 30T214 -8ZM240 325Q257 333 273 350T289 392Q290 409 282 428T253 462L197 500Q180 491 165 471T149 425Q149 409 158 394T178 370L240 325Z" />
<glyph unicode="&#xa8;" horiz-adv-x="400" d="M231 699V810H339V699H231ZM60 699V810H167V699H60Z" />
<glyph unicode="&#xa9;" horiz-adv-x="862" d="M431 -11Q324 -11 248 26T124 124T52 260T29 412Q29 488 52 563T123 699T248 797T431 834Q538 834 614 797T738 699T810 563T833 412Q833 336 811 261T740 124T615 26T431 -11ZM432 124Q373 124 336 141T280 189T253
265T245 364V471Q245 547 259 601T314 683T432 712Q502 712 540 691T592 628T607 523V496H502V523Q502 563 496 586T475 620T434 630Q404 630 388 618T366 575T360 494V336Q360 284 367 256T391 218T434 207Q464 207 478 220T497 256T502 311V343H607V318Q607 257
592 214T539 147T432 124ZM434 33Q526 33 592 65T702 151T766 273T787 412Q787 484 766 551T702 673T593 758T434 790Q342 790 275 759T165 673T102 552T81 412Q81 341 101 273T165 151T275 65T434 33Z" />
<glyph unicode="&#xaa;" horiz-adv-x="443" d="M178 321Q134 321 106 352T77 432Q77 472 94 499T139 546T203 579T276 605V658Q276 695 268 720T233 745Q214 745 203 733T186 702T181 657H93Q95 731 131 776T234 822Q289 822 318 799T359 733T370 628V327H284V391Q269
362 242 342T178 321ZM213 403Q234 403 251 417T276 450V563Q249 550 226 536T187 502T172 454Q172 429 183 416T213 403Z" />
<glyph unicode="&#xab;" horiz-adv-x="455" d="M389 41L225 269V321L389 549V415L307 295L389 174V41ZM194 41L31 269V321L194 549V415L112 295L194 174V41Z" />
<glyph unicode="&#xac;" horiz-adv-x="387" d="M305 256V368H40V449H360V256H305Z" />
<glyph unicode="&#xad;" horiz-adv-x="344" d="M58 467V548H288V467H58Z" />
<glyph unicode="&#xae;" horiz-adv-x="888" d="M444 -13Q338 -13 263 23T139 120T69 255T46 405Q46 481 68 555T139 689T262 786T444 823Q550 823 625 787T749 690T819 555T842 405Q842 329 820 255T750 121T627 24T444 -13ZM444 37Q533 37 597 68T702 152T764
270T784 405Q784 474 764 539T703 657T597 740T444 771Q355 771 291 741T185 658T123 540T103 405Q103 336 123 271T184 152T290 68T444 37ZM292 144V674H448Q507 674 544 656T599 604T617 520Q617 470 594 440T532 392L628 144H531L446 373H385V144H292ZM385 423H418Q480
423 500 445T521 522Q521 565 504 588T440 612H385V423Z" />
<glyph unicode="&#xaf;" horiz-adv-x="284" d="M46 745V810H238V745H46Z" />
<glyph unicode="&#xb0;" horiz-adv-x="453" d="M226 481Q175 481 137 501T79 559T58 650Q58 703 78 740T137 797T226 817Q278 817 315 797T374 740T395 650Q395 597 374 559T316 501T226 481ZM226 553Q267 553 290 580T313 650Q313 694 290 720T226 747Q185 747
162 721T139 650Q139 607 162 580T226 553Z" />
<glyph unicode="&#xb1;" horiz-adv-x="368" d="M144 175V262H57V344H144V431H226V344H313V262H226V175H144ZM57 0V82H313V0H57Z" />
<glyph unicode="&#xb2;" horiz-adv-x="422" d="M77 433V494L201 629Q231 661 248 683T273 724T281 760Q281 790 267 806T224 823Q186 823 171 799T155 727H76V741Q76 785 91 820T138 877T224 898Q289 898 326 863T363 765Q363 715 340 678T266 589L183 503H368V433H77Z" />
<glyph unicode="&#xb3;" horiz-adv-x="426" d="M220 423Q170 423 139 440T93 488T78 559V575H157V571Q157 534 173 516T222 498Q251 498 264 515T278 563Q278 595 266 612T221 629H195V695H218Q244 695 258 711T273 760Q273 788 260 805T218 823Q185 823 171 803T157
750V746H78V762Q78 829 116 863T220 898Q282 898 318 867T355 776Q355 731 336 703T289 664Q316 655 338 631T360 554Q360 489 322 456T220 423Z" />
<glyph unicode="&#xb4;" horiz-adv-x="277" d="M56 612L115 810H222L110 612H56Z" />
<glyph unicode="&#xb5;" horiz-adv-x="441" d="M51 -175L50 578H157V142Q157 111 166 94T203 76Q221 76 240 86T278 112V578H385V0H278V57Q260 38 238 24T191 2Q184 0 175 -1T159 -3V-175H51Z" />
<glyph unicode="&#xb6;" horiz-adv-x="492" d="M199 -96V515Q126 515 79 552T32 662Q32 713 54 745T117 794T215 810H429V-96H352V759H275V-96H199Z" />
<glyph unicode="&#xb7;" horiz-adv-x="176" d="M36 322V432H144V322H36Z" />
<glyph unicode="&#xb8;" horiz-adv-x="352" d="M147 -235Q131 -235 114 -232T80 -225V-171Q93 -175 106 -176T131 -178Q157 -178 174 -169T192 -139Q192 -121 182 -111T153 -94T107 -83V0H161V-56Q211 -56 241 -79T272 -142Q272 -174 256 -194T211 -225T147 -235Z" />
<glyph unicode="&#xb9;" horiz-adv-x="340" d="M172 433V789L80 753V822L211 888H250V433H172Z" />
<glyph unicode="&#xba;" horiz-adv-x="443" d="M222 320Q163 320 129 342T81 407T67 505V637Q67 722 100 772T222 822Q305 822 340 771T376 637V505Q376 451 361 409T312 344T222 320ZM220 398Q251 398 263 414T279 458T282 517V625Q282 657 279 683T264 726T220
743Q190 743 177 727T160 684T156 625V517Q156 486 159 459T176 415T220 398Z" />
<glyph unicode="&#xbb;" horiz-adv-x="481" d="M57 41V174L148 295L57 415V549L230 321V269L57 41ZM252 41V174L343 295L252 415V549L424 321V269L252 41Z" />
<glyph unicode="&#xbc;" horiz-adv-x="945" d="M184 611V967L92 931V1000L223 1066H262V611H184ZM215 0L586 810H678L307 0H215ZM677 0V107H505V166L696 455H755V168H799V107H755V0H677ZM584 168H677L676 314L584 168Z" />
<glyph unicode="&#xbd;" horiz-adv-x="945" d="M405 611V967L313 931V1000L444 1066H483V611H405ZM180 0L551 810H643L272 0H180ZM555 0V61L679 196Q709 228 726 250T751 291T759 327Q759 357 745 373T702 390Q664 390 649 366T633 294H554V308Q554 352 569 387T616
444T702 465Q767 465 804 430T841 332Q841 282 818 245T744 156L661 70H846V0H555Z" />
<glyph unicode="&#xbe;" horiz-adv-x="874" d="M457 598Q407 598 376 615T330 663T315 734V750H394V746Q394 709 410 691T459 673Q488 673 501 690T515 738Q515 770 503 787T458 804H432V870H455Q481 870 495 886T510 935Q510 963 497 980T455 998Q422 998 408
978T394 925V921H315V937Q315 1004 353 1038T457 1073Q519 1073 555 1042T592 951Q592 906 573 878T526 839Q553 830 575 806T597 729Q597 664 559 631T457 598ZM256 0L627 810H719L348 0H256ZM718 0V107H546V166L737 455H796V168H840V107H796V0H718ZM625 168H718L717
314L625 168Z" />
<glyph unicode="&#xbf;" horiz-adv-x="487" d="M339 425V301Q289 257 249 213T184 120T160 13Q160 -34 184 -65T256 -96Q296 -96 319 -73T343 -14Q343 -1 341 10T336 36L436 55Q441 40 444 24T447 -8Q447 -88 397 -138T256 -189Q161 -189 108 -136T55 16Q55 83
80 137T148 237T244 328V425H339ZM344 628V518H237V628H344Z" />
<glyph unicode="&#xc0;" horiz-adv-x="492" d="M19 0L191 810H300L473 0H366L329 204H164L125 0H19ZM179 285H314L246 650L179 285ZM221 858L110 1056H217L274 858H221Z" />
<glyph unicode="&#xc1;" horiz-adv-x="492" d="M19 0L191 810H300L473 0H366L329 204H164L125 0H19ZM179 285H314L246 650L179 285ZM218 858L277 1056H384L272 858H218Z" />
<glyph unicode="&#xc2;" horiz-adv-x="492" d="M19 0L191 810H300L473 0H366L329 204H164L125 0H19ZM179 285H314L246 650L179 285ZM105 867L191 1042H300L387 867H306L245 988L185 867H105Z" />
<glyph unicode="&#xc3;" horiz-adv-x="492" d="M19 0L191 810H300L473 0H366L329 204H164L125 0H19ZM179 285H314L246 650L179 285ZM322 932Q294 932 273 944T232 969T191 981Q174 981 166 972T157 940H96Q96 970 103 994T128 1033T176 1048Q201 1048 221 1036T262
1012T303 1000Q320 1000 328 1009T336 1042H396Q396 1012 390 987T368 947T322 932Z" />
<glyph unicode="&#xc4;" horiz-adv-x="492" d="M19 0L191 810H300L473 0H366L329 204H164L125 0H19ZM179 285H314L246 650L179 285ZM278 931V1042H386V931H278ZM106 931V1042H214V931H106Z" />
<glyph unicode="&#xc5;" horiz-adv-x="492" d="M19 0L191 810H300L473 0H366L329 204H164L125 0H19ZM179 285H314L246 650L179 285ZM246 828Q196 828 165 858T134 940Q134 991 165 1021T246 1051Q296 1051 327 1021T358 940Q358 889 327 859T246 828ZM246 882Q272
882 288 897T304 940Q304 968 288 983T246 998Q219 998 204 983T188 940Q188 913 203 898T246 882Z" />
<glyph unicode="&#xc6;" horiz-adv-x="635" d="M-51 0L290 810H605V728H400V460H547V379H400V82H605V0H292V205H143L57 0H-51ZM173 286H292V605L173 286Z" />
<glyph unicode="&#xc7;" horiz-adv-x="515" d="M266 -9Q180 -9 133 27T67 124T48 260V546Q48 628 66 689T132 783T266 817Q342 817 386 789T450 709T470 584V520H363V577Q363 622 359 656T334 710T267 729Q219 729 197 709T169 651T162 563V242Q162 181 172 146T205
95T267 80Q313 80 333 100T358 157T363 241V301H470V241Q470 167 452 111T390 23T266 -9ZM271 -235Q255 -235 238 -232T204 -225V-171Q217 -175 230 -176T255 -178Q281 -178 298 -169T316 -139Q316 -121 306 -111T277 -94T231 -83V0H285V-56Q335 -56 365 -79T396
-142Q396 -174 380 -194T335 -225T271 -235Z" />
<glyph unicode="&#xc8;" horiz-adv-x="407" d="M63 0V810H377V726H176V458H339V378H176V81H379V0H63ZM199 858L88 1056H195L252 858H199Z" />
<glyph unicode="&#xc9;" horiz-adv-x="407" d="M63 0V810H377V726H176V458H339V378H176V81H379V0H63ZM196 858L255 1056H362L250 858H196Z" />
<glyph unicode="&#xca;" horiz-adv-x="407" d="M63 0V810H377V726H176V458H339V378H176V81H379V0H63ZM83 867L169 1042H278L365 867H284L223 988L163 867H83Z" />
<glyph unicode="&#xcb;" horiz-adv-x="407" d="M63 0V810H377V726H176V458H339V378H176V81H379V0H63ZM256 931V1042H364V931H256ZM84 931V1042H192V931H84Z" />
<glyph unicode="&#xcc;" horiz-adv-x="248" d="M69 0V810H180V0H69ZM99 858L-12 1056H95L152 858H99Z" />
<glyph unicode="&#xcd;" horiz-adv-x="248" d="M69 0V810H180V0H69ZM96 858L155 1056H262L150 858H96Z" />
<glyph unicode="&#xce;" horiz-adv-x="248" d="M69 0V810H180V0H69ZM-17 867L69 1042H178L265 867H184L123 988L63 867H-17Z" />
<glyph unicode="&#xcf;" horiz-adv-x="248" d="M69 0V810H180V0H69ZM156 931V1042H264V931H156ZM-16 931V1042H92V931H-16Z" />
<glyph unicode="&#xd0;" horiz-adv-x="518" d="M63 0V388H14V453H63V810H239Q329 810 381 783T456 700T479 563V265Q479 179 457 120T384 31T248 0H63ZM176 81H240Q302 81 328 105T359 175T365 286V549Q365 612 357 651T322 708T237 726H176V453H237V388H176V81Z" />
<glyph unicode="&#xd1;" horiz-adv-x="528" d="M63 0V810H140L370 272V810H464V0H392L159 553V0H63ZM340 932Q312 932 291 944T250 969T209 981Q192 981 184 972T175 940H114Q114 970 121 994T146 1033T194 1048Q219 1048 239 1036T280 1012T321 1000Q338 1000
346 1009T354 1042H414Q414 1012 408 987T386 947T340 932Z" />
<glyph unicode="&#xd2;" horiz-adv-x="539" d="M270 -9Q188 -9 139 23T69 114T48 254V561Q48 641 69 698T139 786T270 817Q352 817 400 786T469 698T491 561V253Q491 174 470 115T400 24T270 -9ZM270 80Q315 80 338 98T369 150T377 229V584Q377 629 369 661T338
711T270 729Q225 729 202 712T170 662T162 584V229Q162 184 170 151T201 99T270 80ZM245 858L134 1056H241L298 858H245Z" />
<glyph unicode="&#xd3;" horiz-adv-x="539" d="M270 -9Q188 -9 139 23T69 114T48 254V561Q48 641 69 698T139 786T270 817Q352 817 400 786T469 698T491 561V253Q491 174 470 115T400 24T270 -9ZM270 80Q315 80 338 98T369 150T377 229V584Q377 629 369 661T338
711T270 729Q225 729 202 712T170 662T162 584V229Q162 184 170 151T201 99T270 80ZM242 858L301 1056H408L296 858H242Z" />
<glyph unicode="&#xd4;" horiz-adv-x="539" d="M270 -9Q188 -9 139 23T69 114T48 254V561Q48 641 69 698T139 786T270 817Q352 817 400 786T469 698T491 561V253Q491 174 470 115T400 24T270 -9ZM270 80Q315 80 338 98T369 150T377 229V584Q377 629 369 661T338
711T270 729Q225 729 202 712T170 662T162 584V229Q162 184 170 151T201 99T270 80ZM129 867L215 1042H324L411 867H330L269 988L209 867H129Z" />
<glyph unicode="&#xd5;" horiz-adv-x="539" d="M270 -9Q188 -9 139 23T69 114T48 254V561Q48 641 69 698T139 786T270 817Q352 817 400 786T469 698T491 561V253Q491 174 470 115T400 24T270 -9ZM270 80Q315 80 338 98T369 150T377 229V584Q377 629 369 661T338
711T270 729Q225 729 202 712T170 662T162 584V229Q162 184 170 151T201 99T270 80ZM346 932Q318 932 297 944T256 969T215 981Q198 981 190 972T181 940H120Q120 970 127 994T152 1033T200 1048Q225 1048 245 1036T286 1012T327 1000Q344 1000 352 1009T360 1042H420Q420
1012 414 987T392 947T346 932Z" />
<glyph unicode="&#xd6;" horiz-adv-x="539" d="M270 -9Q188 -9 139 23T69 114T48 254V561Q48 641 69 698T139 786T270 817Q352 817 400 786T469 698T491 561V253Q491 174 470 115T400 24T270 -9ZM270 80Q315 80 338 98T369 150T377 229V584Q377 629 369 661T338
711T270 729Q225 729 202 712T170 662T162 584V229Q162 184 170 151T201 99T270 80ZM302 931V1042H410V931H302ZM130 931V1042H238V931H130Z" />
<glyph unicode="&#xd7;" horiz-adv-x="383" d="M103 254L49 308L138 397L49 486L103 540L191 451L280 540L334 486L245 397L334 308L280 254L191 343L103 254Z" />
<glyph unicode="&#xd8;" horiz-adv-x="540" d="M160 -74L121 -62L373 880L413 870L160 -74ZM270 -9Q188 -9 139 23T69 114T48 254V561Q48 641 69 698T139 786T270 817Q352 817 400 786T469 698T491 561V253Q491 174 470 115T400 24T270 -9ZM270 80Q315 80 338
98T369 150T377 229V584Q377 629 369 661T338 711T270 729Q225 729 202 712T170 662T162 584V229Q162 184 170 151T201 99T270 80Z" />
<glyph unicode="&#xd9;" horiz-adv-x="543" d="M272 -9Q184 -9 137 26T73 124T56 273V810H164V268Q164 216 171 173T201 105T272 80Q320 80 343 105T373 173T380 268V810H487V273Q487 188 470 125T407 26T272 -9ZM247 858L136 1056H243L300 858H247Z" />
<glyph unicode="&#xda;" horiz-adv-x="543" d="M272 -9Q184 -9 137 26T73 124T56 273V810H164V268Q164 216 171 173T201 105T272 80Q320 80 343 105T373 173T380 268V810H487V273Q487 188 470 125T407 26T272 -9ZM244 858L303 1056H410L298 858H244Z" />
<glyph unicode="&#xdb;" horiz-adv-x="543" d="M272 -9Q184 -9 137 26T73 124T56 273V810H164V268Q164 216 171 173T201 105T272 80Q320 80 343 105T373 173T380 268V810H487V273Q487 188 470 125T407 26T272 -9ZM131 867L217 1042H326L413 867H332L271 988L211 867H131Z" />
<glyph unicode="&#xdc;" horiz-adv-x="543" d="M272 -9Q184 -9 137 26T73 124T56 273V810H164V268Q164 216 171 173T201 105T272 80Q320 80 343 105T373 173T380 268V810H487V273Q487 188 470 125T407 26T272 -9ZM304 931V1042H412V931H304ZM132 931V1042H240V931H132Z" />
<glyph unicode="&#xdd;" horiz-adv-x="481" d="M187 0V286L12 810H117L241 419L363 810H469L295 286V0H187ZM213 858L272 1056H379L267 858H213Z" />
<glyph unicode="&#xde;" horiz-adv-x="503" d="M63 0V810H176V704H293Q361 704 403 675T466 593T486 469Q486 412 473 368T434 294T368 249T274 233H176V0H63ZM176 324H246Q313 324 344 354T376 469Q376 547 349 578T259 610H176V324Z" />
<glyph unicode="&#xdf;" horiz-adv-x="515" d="M223 -9V80Q264 80 289 90T328 119T347 167T353 232Q353 274 340 306T300 356T231 375V464Q267 464 287 485T315 541T324 611Q324 663 309 697T244 731Q213 731 196 717T173 677T166 613V0H59V612Q59 675 79 721T140
793T241 819Q336 819 382 766T429 611Q429 540 404 497T330 428Q372 417 400 390T444 323T459 232Q459 175 446 130T404 54T331 7T223 -9Z" />
<glyph unicode="&#xe0;" horiz-adv-x="426" d="M158 -8Q124 -8 98 11T57 61T42 126Q42 180 60 217T109 279T182 324T270 361V402Q270 437 266 460T250 494T212 506Q190 506 177 496T157 468T151 424V395L45 399Q47 495 89 540T219 586Q305 586 341 539T377 403V139Q377
112 378 87T382 41T387 0H289Q286 16 282 40T275 85Q265 51 237 22T158 -8ZM200 84Q216 84 230 93T255 113T270 132V296Q245 282 223 268T185 239T159 204T149 159Q149 124 162 104T200 84ZM194 626L83 824H190L247 626H194Z" />
<glyph unicode="&#xe1;" horiz-adv-x="426" d="M158 -8Q124 -8 98 11T57 61T42 126Q42 180 60 217T109 279T182 324T270 361V402Q270 437 266 460T250 494T212 506Q190 506 177 496T157 468T151 424V395L45 399Q47 495 89 540T219 586Q305 586 341 539T377 403V139Q377
112 378 87T382 41T387 0H289Q286 16 282 40T275 85Q265 51 237 22T158 -8ZM200 84Q216 84 230 93T255 113T270 132V296Q245 282 223 268T185 239T159 204T149 159Q149 124 162 104T200 84ZM191 626L250 824H357L245 626H191Z" />
<glyph unicode="&#xe2;" horiz-adv-x="426" d="M158 -8Q124 -8 98 11T57 61T42 126Q42 180 60 217T109 279T182 324T270 361V402Q270 437 266 460T250 494T212 506Q190 506 177 496T157 468T151 424V395L45 399Q47 495 89 540T219 586Q305 586 341 539T377 403V139Q377
112 378 87T382 41T387 0H289Q286 16 282 40T275 85Q265 51 237 22T158 -8ZM200 84Q216 84 230 93T255 113T270 132V296Q245 282 223 268T185 239T159 204T149 159Q149 124 162 104T200 84ZM78 635L164 810H273L360 635H279L218 756L158 635H78Z" />
<glyph unicode="&#xe3;" horiz-adv-x="426" d="M158 -8Q124 -8 98 11T57 61T42 126Q42 180 60 217T109 279T182 324T270 361V402Q270 437 266 460T250 494T212 506Q190 506 177 496T157 468T151 424V395L45 399Q47 495 89 540T219 586Q305 586 341 539T377 403V139Q377
112 378 87T382 41T387 0H289Q286 16 282 40T275 85Q265 51 237 22T158 -8ZM200 84Q216 84 230 93T255 113T270 132V296Q245 282 223 268T185 239T159 204T149 159Q149 124 162 104T200 84ZM295 700Q267 700 246 712T205 737T164 749Q147 749 139 740T130 708H69Q69
738 76 762T101 801T149 816Q174 816 194 804T235 780T276 768Q293 768 301 777T309 810H369Q369 780 363 755T341 715T295 700Z" />
<glyph unicode="&#xe4;" horiz-adv-x="426" d="M158 -8Q124 -8 98 11T57 61T42 126Q42 180 60 217T109 279T182 324T270 361V402Q270 437 266 460T250 494T212 506Q190 506 177 496T157 468T151 424V395L45 399Q47 495 89 540T219 586Q305 586 341 539T377 403V139Q377
112 378 87T382 41T387 0H289Q286 16 282 40T275 85Q265 51 237 22T158 -8ZM200 84Q216 84 230 93T255 113T270 132V296Q245 282 223 268T185 239T159 204T149 159Q149 124 162 104T200 84ZM251 699V810H359V699H251ZM79 699V810H187V699H79Z" />
<glyph unicode="&#xe5;" horiz-adv-x="426" d="M158 -8Q124 -8 98 11T57 61T42 126Q42 180 60 217T109 279T182 324T270 361V402Q270 437 266 460T250 494T212 506Q190 506 177 496T157 468T151 424V395L45 399Q47 495 89 540T219 586Q305 586 341 539T377 403V139Q377
112 378 87T382 41T387 0H289Q286 16 282 40T275 85Q265 51 237 22T158 -8ZM200 84Q216 84 230 93T255 113T270 132V296Q245 282 223 268T185 239T159 204T149 159Q149 124 162 104T200 84ZM219 596Q169 596 138 626T107 708Q107 759 138 789T219 819Q269 819 300
789T331 708Q331 657 300 627T219 596ZM219 650Q245 650 261 665T277 708Q277 736 261 751T219 766Q192 766 177 751T161 708Q161 681 176 666T219 650Z" />
<glyph unicode="&#xe6;" horiz-adv-x="651" d="M180 -8Q110 -8 76 30T42 126Q42 179 60 214T114 271T196 306L274 327V402Q274 448 263 476T213 504Q190 504 176 492T156 459T150 409H44Q45 490 89 538T213 586Q265 586 295 557T333 486H318Q323 514 342 536T393
572T462 586Q533 586 568 550T603 453Q603 397 582 366T526 321T452 297L381 282V155Q381 123 393 100T440 77Q465 77 478 90T496 125T501 176V201H608V177Q608 119 592 78T542 15T454 -8Q408 -8 379 6T335 47T314 109Q306 74 289 48T246 7T180 -8ZM207 75Q230
75 244 85T266 117T274 171V265L228 250Q203 242 185 228T158 195T149 149Q149 127 155 111T174 85T207 75ZM381 340L436 353Q471 361 488 379T505 436Q505 462 492 480T446 499Q421 499 407 486T387 451T381 397V340Z" />
<glyph unicode="&#xe7;" horiz-adv-x="411" d="M212 -8Q141 -8 105 20T56 101T43 222V355Q43 428 56 479T105 558T212 586Q275 586 309 566T357 505T370 404V370H273V405Q273 443 268 465T250 497T213 507Q187 507 173 495T155 455T150 377V195Q150 121 164 96T214
71Q241 71 253 83T269 119T273 171V218H370V178Q370 120 357 78T309 14T212 -8ZM219 -235Q203 -235 186 -232T152 -225V-171Q165 -175 178 -176T203 -178Q229 -178 246 -169T264 -139Q264 -121 254 -111T225 -94T179 -83V0H233V-56Q283 -56 313 -79T344 -142Q344
-174 328 -194T283 -225T219 -235Z" />
<glyph unicode="&#xe8;" horiz-adv-x="421" d="M214 -8Q146 -8 109 18T58 96T43 223V355Q43 432 58 483T110 560T214 586Q287 586 321 556T367 470T378 334V287H150V171Q150 136 156 114T177 82T215 71Q239 71 251 82T268 115T273 166V201H377V179Q377 92 340
42T214 -8ZM150 345H273V397Q273 433 269 457T253 494T213 507Q187 507 174 495T155 455T150 376V345ZM186 626L75 824H182L239 626H186Z" />
<glyph unicode="&#xe9;" horiz-adv-x="421" d="M214 -8Q146 -8 109 18T58 96T43 223V355Q43 432 58 483T110 560T214 586Q287 586 321 556T367 470T378 334V287H150V171Q150 136 156 114T177 82T215 71Q239 71 251 82T268 115T273 166V201H377V179Q377 92 340
42T214 -8ZM150 345H273V397Q273 433 269 457T253 494T213 507Q187 507 174 495T155 455T150 376V345ZM183 626L242 824H349L237 626H183Z" />
<glyph unicode="&#xea;" horiz-adv-x="421" d="M214 -8Q146 -8 109 18T58 96T43 223V355Q43 432 58 483T110 560T214 586Q287 586 321 556T367 470T378 334V287H150V171Q150 136 156 114T177 82T215 71Q239 71 251 82T268 115T273 166V201H377V179Q377 92 340
42T214 -8ZM150 345H273V397Q273 433 269 457T253 494T213 507Q187 507 174 495T155 455T150 376V345ZM70 635L156 810H265L352 635H271L210 756L150 635H70Z" />
<glyph unicode="&#xeb;" horiz-adv-x="421" d="M214 -8Q146 -8 109 18T58 96T43 223V355Q43 432 58 483T110 560T214 586Q287 586 321 556T367 470T378 334V287H150V171Q150 136 156 114T177 82T215 71Q239 71 251 82T268 115T273 166V201H377V179Q377 92 340
42T214 -8ZM150 345H273V397Q273 433 269 457T253 494T213 507Q187 507 174 495T155 455T150 376V345ZM243 699V810H351V699H243ZM71 699V810H179V699H71Z" />
<glyph unicode="&#xec;" horiz-adv-x="224" d="M61 0V578H168V0H61ZM90 626L-21 824H86L143 626H90Z" />
<glyph unicode="&#xed;" horiz-adv-x="224" d="M61 0V578H168V0H61ZM87 626L146 824H253L141 626H87Z" />
<glyph unicode="&#xee;" horiz-adv-x="224" d="M61 0V578H168V0H61ZM-26 635L60 810H169L256 635H175L114 756L54 635H-26Z" />
<glyph unicode="&#xef;" horiz-adv-x="224" d="M61 0V578H168V0H61ZM147 699V810H255V699H147ZM-25 699V810H83V699H-25Z" />
<glyph unicode="&#xf0;" horiz-adv-x="471" d="M237 -9Q175 -9 134 19T72 100T52 225V292Q52 365 64 425T109 521T209 557Q244 557 268 546T306 521Q302 560 294 596T271 655L152 618V672L242 698Q221 722 185 735T77 749L82 819Q179 818 236 796T326 725L442
759V705L353 681Q374 635 388 589T409 491T416 377V237Q416 163 399 108T343 22T237 -9ZM237 76Q266 76 281 94T302 144T308 219Q308 246 308 273T308 327T308 382T308 436Q295 448 277 458T236 469Q206 469 189 449T166 388T159 284Q159 216 163 170T184 100T237
76Z" />
<glyph unicode="&#xf1;" horiz-adv-x="439" d="M54 0V578H161V521Q190 548 225 567T302 586Q337 586 355 568T381 523T389 468V0H282V437Q282 468 273 485T236 502Q218 502 199 492T161 466V0H54ZM296 700Q268 700 247 712T206 737T165 749Q148 749 140 740T131
708H70Q70 738 77 762T102 801T150 816Q175 816 195 804T236 780T277 768Q294 768 302 777T310 810H370Q370 780 364 755T342 715T296 700Z" />
<glyph unicode="&#xf2;" horiz-adv-x="425" d="M213 -8Q149 -8 112 18T60 92T44 205V373Q44 438 59 486T112 560T213 586Q277 586 313 560T365 486T381 373V205Q381 140 366 92T314 18T213 -8ZM213 71Q244 71 256 89T271 136T274 198V379Q274 412 272 441T257
488T213 507Q182 507 169 489T154 441T151 379V198Q151 166 153 137T169 89T213 71ZM188 626L77 824H184L241 626H188Z" />
<glyph unicode="&#xf3;" horiz-adv-x="425" d="M213 -8Q149 -8 112 18T60 92T44 205V373Q44 438 59 486T112 560T213 586Q277 586 313 560T365 486T381 373V205Q381 140 366 92T314 18T213 -8ZM213 71Q244 71 256 89T271 136T274 198V379Q274 412 272 441T257
488T213 507Q182 507 169 489T154 441T151 379V198Q151 166 153 137T169 89T213 71ZM185 626L244 824H351L239 626H185Z" />
<glyph unicode="&#xf4;" horiz-adv-x="425" d="M213 -8Q149 -8 112 18T60 92T44 205V373Q44 438 59 486T112 560T213 586Q277 586 313 560T365 486T381 373V205Q381 140 366 92T314 18T213 -8ZM213 71Q244 71 256 89T271 136T274 198V379Q274 412 272 441T257
488T213 507Q182 507 169 489T154 441T151 379V198Q151 166 153 137T169 89T213 71ZM72 635L158 810H267L354 635H273L212 756L152 635H72Z" />
<glyph unicode="&#xf5;" horiz-adv-x="425" d="M213 -8Q149 -8 112 18T60 92T44 205V373Q44 438 59 486T112 560T213 586Q277 586 313 560T365 486T381 373V205Q381 140 366 92T314 18T213 -8ZM213 71Q244 71 256 89T271 136T274 198V379Q274 412 272 441T257
488T213 507Q182 507 169 489T154 441T151 379V198Q151 166 153 137T169 89T213 71ZM289 700Q261 700 240 712T199 737T158 749Q141 749 133 740T124 708H63Q63 738 70 762T95 801T143 816Q168 816 188 804T229 780T270 768Q287 768 295 777T303 810H363Q363 780
357 755T335 715T289 700Z" />
<glyph unicode="&#xf6;" horiz-adv-x="425" d="M213 -8Q149 -8 112 18T60 92T44 205V373Q44 438 59 486T112 560T213 586Q277 586 313 560T365 486T381 373V205Q381 140 366 92T314 18T213 -8ZM213 71Q244 71 256 89T271 136T274 198V379Q274 412 272 441T257
488T213 507Q182 507 169 489T154 441T151 379V198Q151 166 153 137T169 89T213 71ZM245 699V810H353V699H245ZM73 699V810H181V699H73Z" />
<glyph unicode="&#xf7;" horiz-adv-x="346" d="M19 372V450H328V372H19ZM130 172V283H215V172H130ZM130 527V638H215V527H130Z" />
<glyph unicode="&#xf8;" horiz-adv-x="424" d="M96 -95L64 -84L330 668L367 656L96 -95ZM213 -8Q149 -8 112 18T60 92T44 205V373Q44 438 59 486T112 560T213 586Q277 586 313 560T365 486T381 373V205Q381 140 366 92T314 18T213 -8ZM213 71Q244 71 256 89T271
136T274 198V379Q274 412 272 441T257 488T213 507Q182 507 169 489T154 441T151 379V198Q151 166 153 137T169 89T213 71Z" />
<glyph unicode="&#xf9;" horiz-adv-x="440" d="M137 -8Q103 -8 84 10T58 55T50 110V578H157V142Q157 111 166 94T203 76Q221 76 240 86T278 112V578H385V0H278V57Q250 30 215 11T137 -8ZM195 626L84 824H191L248 626H195Z" />
<glyph unicode="&#xfa;" horiz-adv-x="440" d="M137 -8Q103 -8 84 10T58 55T50 110V578H157V142Q157 111 166 94T203 76Q221 76 240 86T278 112V578H385V0H278V57Q250 30 215 11T137 -8ZM192 626L251 824H358L246 626H192Z" />
<glyph unicode="&#xfb;" horiz-adv-x="440" d="M137 -8Q103 -8 84 10T58 55T50 110V578H157V142Q157 111 166 94T203 76Q221 76 240 86T278 112V578H385V0H278V57Q250 30 215 11T137 -8ZM79 635L165 810H274L361 635H280L219 756L159 635H79Z" />
<glyph unicode="&#xfc;" horiz-adv-x="440" d="M137 -8Q103 -8 84 10T58 55T50 110V578H157V142Q157 111 166 94T203 76Q221 76 240 86T278 112V578H385V0H278V57Q250 30 215 11T137 -8ZM252 699V810H360V699H252ZM80 699V810H188V699H80Z" />
<glyph unicode="&#xfd;" horiz-adv-x="392" d="M45 -145V-63Q84 -63 107 -60T140 -47T150 -20Q150 -11 143 20T128 86L12 578H120L198 146L273 578H381L243 -32Q234 -74 210 -98T149 -134T58 -145H45ZM168 626L227 824H334L222 626H168Z" />
<glyph unicode="&#xfe;" horiz-adv-x="447" d="M55 -190V810H162V532Q181 554 208 570T272 586Q317 586 343 563T383 504T400 432T404 369V229Q404 168 392 114T349 26T260 -8Q229 -8 205 7T162 43V-190H55ZM239 76Q266 76 278 96T294 152T297 229V369Q297 405
293 435T276 484T234 502Q213 502 195 493T162 472V102Q177 91 196 84T239 76Z" />
<glyph unicode="&#xff;" horiz-adv-x="392" d="M45 -145V-63Q84 -63 107 -60T140 -47T150 -20Q150 -11 143 20T128 86L12 578H120L198 146L273 578H381L243 -32Q234 -74 210 -98T149 -134T58 -145H45ZM228 699V810H336V699H228ZM56 699V810H164V699H56Z" />
<glyph unicode="&#x2013;" horiz-adv-x="494" d="M8 204V285H487V204H8Z" />
<glyph unicode="&#x2014;" horiz-adv-x="965" d="M8 269V347H958V269H8Z" />
<glyph unicode="&#x2018;" horiz-adv-x="208" d="M31 579Q31 603 31 627T31 676Q31 753 53 797T130 843L149 804Q118 801 107 775T95 691H148V579H31Z" />
<glyph unicode="&#x2019;" horiz-adv-x="208" d="M78 545L59 585Q90 587 101 614T113 697H60V810H177Q177 786 177 762T177 713Q177 635 155 592T78 545Z" />
<glyph unicode="&#x201a;" horiz-adv-x="208" d="M78 -133L59 -93Q90 -91 101 -64T113 19H60V132H177Q177 108 177 84T177 35Q177 -43 155 -86T78 -133Z" />
<glyph unicode="&#x201c;" horiz-adv-x="384" d="M31 579Q31 603 31 627T31 676Q31 753 53 797T130 843L149 804Q118 801 107 775T95 691H148V579H31ZM207 579Q207 603 207 627T207 676Q207 753 229 797T306 843L325 804Q294 801 283 775T271 691H324V579H207Z" />
<glyph unicode="&#x201d;" horiz-adv-x="384" d="M78 545L59 585Q90 587 101 614T113 697H60V810H177Q177 786 177 762T177 713Q177 635 155 592T78 545ZM254 545L235 585Q266 587 277 614T289 697H236V810H353Q353 786 353 762T353 713Q353 635 331 592T254 545Z" />
<glyph unicode="&#x201e;" horiz-adv-x="384" d="M254 -133L235 -93Q266 -91 277 -64T289 19H236V132H353Q353 108 353 84T353 35Q353 -43 331 -86T254 -133ZM78 -133L59 -93Q90 -91 101 -64T113 19H60V132H177Q177 108 177 84T177 35Q177 -43 155 -86T78 -133Z" />
<glyph unicode="&#x2022;" horiz-adv-x="363" d="M181 272Q145 272 120 286T82 328T68 390Q68 426 81 452T120 492T181 507Q218 507 243 493T281 452T295 390Q295 354 282 328T243 287T181 272Z" />
<glyph unicode="&#x2039;" horiz-adv-x="275" d="M242 41L43 269V321L242 549V415L125 295L242 174V41Z" />
<glyph unicode="&#x203a;" horiz-adv-x="292" d="M60 93V227L177 348L60 467V602L258 374V321L60 93Z" />
</font>
</defs>
</svg>
